Gilberto Gil - Parabolicamara.rar - http://urlin.us/41bpz

Gilberto Gil - Parabolicamara.rar

Sina musicians Gilberto Gil - acoustic guitar, vocals, background vocals, accordion Carlinhos Bala - drums Carlinhos Brown - percussion Nana Caymmi - vocals Djalma Correa - percussion Marcelinha Costa - saxophone De - bass, composer Firmino - percussion Jorginho Gomez - drums Teo Lima - drums Liminha - bass, drum programming, drums, guitar William Magalhaes - keyboards Marco Pereira - guitar Rubao Sabino - bass Serginho Trombone - trombone Herbert Vianna - slide guitar Ronaldo Correa - background vocals Ronaldo Barcellos - background vocals Viviane & Silva - background vocals Ze Americo - accordion, keyboards Marizza Fossa - background vocals Maria Gil - background vocals Nara Gil - background vocals Preta Gil - background vocals Produced by Liminha XLD Logfile X Lossless Decoder version 20131102 (145.0) XLD extraction logfile from 2014-05-08 12:44:30 -0300 Gilberto Gil / Parabolicamara Used drive : TSSTcorp DVD-ROM TS-H353B (revision D200) Media type : Pressed CD Ripper mode : XLD Secure Ripper Disable audio cache : OK for the drive with a cache less than 1375KiB Make use of C2 pointers : NO Read offset correction : 6 Max retry count : 20 Gap status : Analyzed, Appended (except HTOA) TOC of the extracted CD Track Start Length Start sector End sector β€”β€”β€”β€”β€”β€”β€”β€”β€”β€”β€”β€”β€”β€”β€”β€”β€”β€”β€”β€”β€”β€”β€”β€”β€”β€”β€”β€”- 1 00:00:32 04:00:13 32 18044 2 04:00:45 04:30:35 18045 38329 3 08:31:05 04:47:30 38330 59884 4 13:18:35 03:28:62 59885 75546 5 16:47:22 03:47:25 75547 92596 6 20:34:47 05:54:10 92597 119156 7 26:28:57 03:38:48 119157 135554 8 30:07:30 03:42:00 135555 152204 9 33:49:30 03:17:55 152205 167034 10 37:07:10 03:10:70 167035 181354 11 40:18:05 03:27:27 181355 196906 12 43:45:32 03:52:58 196907 214364 List of alternate offset correction values # Absolute Relative Confidence β€”β€”β€”β€”β€”β€”β€”β€”β€”β€”β€”β€”β€”β€”β€”β€”β€”β€”β€”β€”β€” 1 -17 -23 4 AccurateRip Summary (DiscID: 00162407-00cce225-800b2a0c) Track 01 : OK (v1, confidence 2/2, with different offset) Track 02 : OK (v1, confidence 2/2, with different offset) Track 03 : OK (v1, confidence 2/2, with different offset) Track 04 : OK (v1, confidence 2/2, with different offset) Track 05 : OK (v1, confidence 2/2, with different offset) Track 06 : OK (v1, confidence 2/2, with different offset) Track 07 : OK (v1+v2, confidence 4/4, with different offset) Track 08 : OK (v1+v2, confidence 4/4, with different offset) Track 09 : OK (v1+v2, confidence 4/4, with different offset) Track 10 : OK (v1+v2, confidence 4/4, with different offset) Track 11 : OK (v1+v2, confidence 4/4, with different offset) Track 12 : OK (v1+v2, confidence 4/4, with different offset) ->All tracks accurately ripped. Method Not Allowed .. Seguir Seguir β€œDiscografias completas” Obtenha todo post novo entregue na sua caixa de entrada. "Parabolicamara" builds a discourse about communications over a beautiful ponto de macumba melody with enriched harmonies. Ya Olokun 09. Junte-se a 1.108 outros seguidores Curta nossa pagina Curta nossa pagina Categorias ARROCHA (6) Ax (20) brega (9) classica (2) Clipes (24) dance (64) Documentrio (1) Eletrnica (16) Embolada (2) Filmes (234) Forr (46) funk (28) Gospel (22) Heavy Metal (2) HIP HOP (11) Infantil (24) Jazz (3) Jogos psp (10) Lambada (3) Livros (9) Love songs (39) Msica Catlica (3) Msicas (34) Mega Discografias Letras (2) Metal (4) MPB (28) Notcias do mundo da msica (22) opera (1) pagode (38) Pop (59) pop rock (156) Programas (19) rap (21) Recado (1) reggae (9) rock pesado (15) samba (32) Series (62) sertanejo (147) Shows (35) trilha sonora (48) tutoriais (3) Variados (38) Follow Discografias completas on WordPress.com Principais posts & pginas Baixar ou assitir pelo openload.co Masha e o Urso dvd dublado Coletnea de musicas internacionais Eduardo costa As 100 Melhores musicas dos anos 70, 80 e 90 (2016) Msicas Inesquecveis Dos Anos 70 80 e 90 Baixar CD Andr Valado Crer Para Ver: Ao Vivo (2016) PATATI PATAT - DVD Completo - Os maiores sucessos Zeca pagodinho The Last Shadow Puppets Everything Youve Come To Expect (2016) Baixe discografias grtis nacionais e internacionais Postagens arquivadas setembro 2016(77) agosto 2016(216) julho 2016(182) junho 2016(135) maio 2016(42) abril 2016(55) maro 2016(64) fevereiro 2016(149) janeiro 2016(202) dezembro 2015(90) Estatsticas do blog 1,247,843 hits Blog no WordPress.com. Method Not Allowed .. Method Not Allowed .. Falso Toureiro 12. Discogs About Us Blog Shop App Jobs API Change Log Help Is Here Help & Support Forum Keyboard Shortcuts Join In Get Started Sign Up Contribute Add Release Contributor List Help Translate Discogs Events Advertise With Us Follow Us Facebook Twitter Instagram Mixcloud Soundcloud Tumblr 2016 Discogs Terms of Service Privacy Policy Cookie Policy English Deutsch English Espaol Franais Italiano . Mirror Download Mirror1 : Gilberto Gil - Parabolicamara Mirror2: Gilberto Gil - Parabolicamara Torrent Download: Gilberto Gil - Parabolicamara.torrent . Explore Marketplace Community Groups Forum Blog Friends Guidelines Register Log In Please enable Javascript to take full advantage of our site features. 403 Forbidden.. β€Žβ€“ M176292-2 Format: CD, Album Country: Brazil Released: 1991 Genre: Jazz, Latin, Funk / Soul Style: Tracklist 1 Madalena (Entra Em Beco, Sai Em Beco) 2 Parabolicamar 3 Um Sonho 4 Buda Nag 5 Serafim 6 Quero Ser Teu Funk 7 Neve Na Bahia 8 Y Olokun 9 O Fim Da Histria 10 De Onde Vem O Baio 11 Falso Toureiro 12 Sina Credits Producer – Liminha Barcode and Other Identifiers Barcode: 090317629223 Other Versions (5 of 5) View All Cat# Artist Title (Format) Label Cat# Country Year 76292-2 Gilberto Gil Parabolic β€Ž(CD, Album) Tropical Storm 76292-2 US 1992 Sell This Version 9031-76292-2 Gilberto Gil Parabolic β€Ž(CD, Album) WEA 9031-76292-2 Germany 1991 Sell This Version 9031-76292-1 Gilberto Gil Parabolic β€Ž(LP, Album) WEA 9031-76292-1 Europe 1991 Sell This Version 670.9396 Gil, Gilberto* Parabolicamar β€Ž(LP, Album) Wea 670.9396 Brazil 1991 Sell This Version 092746047-2 Gilberto Gil Parabolicamar β€Ž(CD, Album, RE, RM) WEA Music, Warner Strategic Marketing Brasil 092746047-2 Brazil 2003 Sell This Version Reviews Add Review [r3886582] Release Edit Release All Versions of this Release New Submission Add to Collection Add to Wantlist Remove from Wantlist Marketplace 0 1 For Sale from 8.96 Buy CD Sell CD Share Statistics Have: 3 Want: 0 Avg Rating: 4.0 / 5 Ratings: 1 Last Sold: Never Lowest: β€” Median: β€” Highest: β€” Videos Edit Add a Video Lists Add to List Contributors gippy . All Tracks Album gain : -3.32 dB Peak : 0.907990 Statistics Read error : 0 Jitter error (maybe fixed) : 0 Retry sector count : 0 Damaged sector count : 0 Track 01 Filename : /Volumes/Hitachi 1TB/Converter/01 - Madalena.flac Pre-gap length : 00:02:32 Track gain : -5.26 dB Peak : 0.894897 CRC32 hash (test run) : F224AFBF CRC32 hash : F224AFBF CRC32 hash (skip zero) : 739043CB AccurateRip v1 signature : ECB1E7F9 (AE5B741B w/correction) AccurateRip v2 signature : B3EBC670 ->Accurately ripped with different offset (v1, confidence 2/2, offset -23) Statistics Read error : 0 Jitter error (maybe fixed) : 0 Retry sector count : 0 Damaged sector count : 0 Track 02 Filename : /Volumes/Hitachi 1TB/Converter/02 - Parabolicamara.flac Pre-gap length : 00:00:05 Track gain : -3.96 dB Peak : 0.883423 CRC32 hash (test run) : 41502F9B CRC32 hash : 41502F9B CRC32 hash (skip zero) : 7DCC054E AccurateRip v1 signature : 84E1E118 (19A76FE8 w/correction) AccurateRip v2 signature : 2B7E6272 ->Accurately ripped with different offset (v1, confidence 2/2, offset -23) Statistics Read error : 0 Jitter error (maybe fixed) : 0 Retry sector count : 0 Damaged sector count : 0 Track 03 Filename : /Volumes/Hitachi 1TB/Converter/03 - Um sonho.flac Pre-gap length : 00:01:03 Track gain : -0.88 dB Peak : 0.591553 CRC32 hash (test run) : B33E33E8 CRC32 hash : B33E33E8 CRC32 hash (skip zero) : A55BC38C AccurateRip v1 signature : 5B618E96 (50AEF0B1 w/correction) AccurateRip v2 signature : 19392AD9 ->Accurately ripped with different offset (v1, confidence 2/2, offset -23) Statistics Read error : 0 Jitter error (maybe fixed) : 0 Retry sector count : 0 Damaged sector count : 0 Track 04 Filename : /Volumes/Hitachi 1TB/Converter/04 - Buda nago.flac Pre-gap length : 00:00:10 Track gain : -1.48 dB Peak : 0.791626 CRC32 hash (test run) : 18C98853 CRC32 hash : 18C98853 CRC32 hash (skip zero) : EA47689F AccurateRip v1 signature : 1F899FE5 (D32968ED w/correction) AccurateRip v2 signature : 7D1271C7 ->Accurately ripped with different offset (v1, confidence 2/2, offset -23) Statistics Read error : 0 Jitter error (maybe fixed) : 0 Retry sector count : 0 Damaged sector count : 0 Track 05 Filename : /Volumes/Hitachi 1TB/Converter/05 - Serafim.flac Track gain : -3.73 dB Peak : 0.883423 CRC32 hash (test run) : 065F8F6E CRC32 hash : 065F8F6E CRC32 hash (skip zero) : 778DE114 AccurateRip v1 signature : 619A8787 (E11D8620 w/correction) AccurateRip v2 signature : D1A73758 ->Accurately ripped with different offset (v1, confidence 2/2, offset -23) Statistics Read error : 0 Jitter error (maybe fixed) : 0 Retry sector count : 0 Damaged sector count : 0 Track 06 Filename : /Volumes/Hitachi 1TB/Converter/06 - Quero ser teu funk.flac Track gain : -4.02 dB Peak : 0.883728 CRC32 hash (test run) : 2FFA688E CRC32 hash : 2FFA688E CRC32 hash (skip zero) : 28609474 AccurateRip v1 signature : 9E395EE8 (9CB3B5A2 w/correction) AccurateRip v2 signature : F5436D9C ->Accurately ripped with different offset (v1, confidence 2/2, offset -23) Statistics Read error : 0 Jitter error (maybe fixed) : 0 Retry sector count : 0 Damaged sector count : 0 Track 07 Filename : /Volumes/Hitachi 1TB/Converter/07 - Neve na Bahia.flac Pre-gap length : 00:00:02 Track gain : -1.46 dB Peak : 0.859436 CRC32 hash (test run) : E6497E04 CRC32 hash : E6497E04 CRC32 hash (skip zero) : 89A1B28C AccurateRip v1 signature : BE2948EB (D9720CD1 w/correction) AccurateRip v2 signature : AAC31F54 (BF637FD9 w/correction) ->Accurately ripped with different offset (v1+v2, confidence 2+2/4, offset -23) Statistics Read error : 0 Jitter error (maybe fixed) : 0 Retry sector count : 0 Damaged sector count : 0 Track 08 Filename : /Volumes/Hitachi 1TB/Converter/08 - Ya Olokun.flac Pre-gap length : 00:00:05 Track gain : -2.86 dB Peak : 0.887268 CRC32 hash (test run) : A5D6A360 CRC32 hash : A5D6A360 CRC32 hash (skip zero) : 415C0369 AccurateRip v1 signature : E71AEA0B (9FD75AA1 w/correction) AccurateRip v2 signature : 855FC1C5 (4154F300 w/correction) ->Accurately ripped with different offset (v1+v2, confidence 2+2/4, offset -23) Statistics Read error : 0 Jitter error (maybe fixed) : 0 Retry sector count : 0 Damaged sector count : 0 Track 09 Filename : /Volumes/Hitachi 1TB/Converter/09 - O fim da historia.flac Pre-gap length : 00:00:05 Track gain : -3.31 dB Peak : 0.894714 CRC32 hash (test run) : D9244CC0 CRC32 hash : D9244CC0 CRC32 hash (skip zero) : A9307075 AccurateRip v1 signature : 51E84A37 (CB1B1FB8 w/correction) AccurateRip v2 signature : 85209D6C (FBFDC4C1 w/correction) ->Accurately ripped with different offset (v1+v2, confidence 2+2/4, offset -23) Statistics Read error : 0 Jitter error (maybe fixed) : 0 Retry sector count : 0 Damaged sector count : 0 Track 10 Filename : /Volumes/Hitachi 1TB/Converter/10 - De onde vem o baiao.flac Track gain : -3.13 dB Peak : 0.888641 CRC32 hash (test run) : 62375926 CRC32 hash : 62375926 CRC32 hash (skip zero) : 275E3365 AccurateRip v1 signature : 65D12A12 (CA0504ED w/correction) AccurateRip v2 signature : 9564F6B4 (FF4D0DF3 w/correction) ->Accurately ripped with different offset (v1+v2, confidence 2+2/4, offset -23) Statistics Read error : 0 Jitter error (maybe fixed) : 0 Retry sector count : 0 Damaged sector count : 0 Track 11 Filename : /Volumes/Hitachi 1TB/Converter/11 - Falso toureiro.flac Track gain : -2.68 dB Peak : 0.907990 CRC32 hash (test run) : 1F66EE11 CRC32 hash : 1F66EE11 CRC32 hash (skip zero) : D4F77783 AccurateRip v1 signature : 3C0DEF50 (C05FB2C4 w/correction) AccurateRip v2 signature : 8F70B43E (195D0AE1 w/correction) ->Accurately ripped with different offset (v1+v2, confidence 2+2/4, offset -23) Statistics Read error : 0 Jitter error (maybe fixed) : 0 Retry sector count : 0 Damaged sector count : 0 Track 12 Filename : /Volumes/Hitachi 1TB/Converter/12 - Sina.flac Track gain : -0.57 dB Peak : 0.846252 CRC32 hash (test run) : 85A1F2D9 CRC32 hash : 85A1F2D9 CRC32 hash (skip zero) : BE5B736A AccurateRip v1 signature : 31420DEF (6483D73B w/correction) AccurateRip v2 signature : B0C55710 (EAF85AB2 w/correction) ->Accurately ripped with different offset (v1+v2, confidence 2+2/4, offset -23) Statistics Read error : 0 Jitter error (maybe fixed) : 0 Retry sector count : 0 Damaged sector count : 0 No errors occurred End of status report β€”β€”-BEGIN XLD SIGNATUREβ€”β€”- oLadve7vsiSuj4MUs7I0uaSnpl09awaZpZK6Tgild1dx2u0w7g7IIgWiRitsObJSe5SgE5AjEu0C4fnsoYq2xhOTIo7PrSlBBdvi β€”β€”-END XLD SIGNATUREβ€”β€”- Dynamic Range Analysis β€”β€”β€”β€”β€”β€”β€”β€”β€”β€”β€”β€”β€”β€”β€”β€”β€”β€”β€”β€”β€”β€”β€”β€”β€”β€”β€”β€”β€”β€”β€”β€”β€”β€”β€”β€”β€”β€”β€”β€” Analyzed: Gilberto Gil / Parabolicamara β€”β€”β€”β€”β€”β€”β€”β€”β€”β€”β€”β€”β€”β€”β€”β€”β€”β€”β€”β€”β€”β€”β€”β€”β€”β€”β€”β€”β€”β€”β€”β€”β€”β€”β€”β€”β€”β€”β€”β€” DR Peak RMS Duration Track β€”β€”β€”β€”β€”β€”β€”β€”β€”β€”β€”β€”β€”β€”β€”β€”β€”β€”β€”β€”β€”β€”β€”β€”β€”β€”β€”β€”β€”β€”β€”β€”β€”β€”β€”β€”β€”β€”β€”β€” DR9 -0.96 dB -12.96 dB 4:00 01-Madalena DR11 -1.08 dB -14.45 dB 4:30 02-Parabolicamara DR10 -4.56 dB -15.89 dB 4:47 03-Um sonho DR11 -2.03 dB -14.96 dB 3:29 04-Buda nago DR11 -1.08 dB -13.64 dB 3:47 05-Serafim DR11 -1.07 dB -12.89 dB 5:54 06-Quero ser teu funk DR12 -1.32 dB -14.92 dB 3:39 07-Neve na Bahia DR11 -1.04 dB -13.88 dB 3:42 08-Ya Olokun DR12 -0.97 dB -13.90 dB 3:18 09-O fim da historia DR12 -1.03 dB -14.03 dB 3:11 10-De onde vem o baiao DR12 -0.84 dB -13.95 dB 3:27 11-Falso toureiro DR13 -1.45 dB -15.52 dB 3:53 12-Sina β€”β€”β€”β€”β€”β€”β€”β€”β€”β€”β€”β€”β€”β€”β€”β€”β€”β€”β€”β€”β€”β€”β€”β€”β€”β€”β€”β€”β€”β€”β€”β€”β€”β€”β€”β€”β€”β€”β€”β€” Number of tracks: 12 Official DR value: DR11 Samplerate: 44100 Hz Channels: 2 Bits per sample: 16 Bitrate: 781 kbps Codec: FLAC ================================================================================ Rip by kikowav . bd9e74395d

Goldstein scanning electron microscopy pdf
Free download cephalometric analysis software
Download game shinobido way of the ninja
Britney Spears Femme Fatale Tour From MGM Grand In Las Vegas In 1080p.mp4 1
Epin Keygen
Imperia Online Hack v3.1.rar
Driver Laptop Cms S22
Illusions of Sin 1997
Free online diagnosis for autism
Fragfx firmware